(Classical) Arthur Fiedler & The Boston Pops - Marches in Hi-Fi (Verdi, Herbert, Чайковский, Berlioz, Ипполитов-Иванов, Gould, Gershwin, Mendelssohn, Sibelius) - 1993, FLAC (image+.cue), lossless

Страницы:  1

Ответить
Автор
Сообщение

yo0507

Стаж: 9 лет 5 месяцев

Сообщений: 187

yo0507 · 15-Июл-12 19:44 (6 лет 11 месяцев назад, ред. 17-Июл-12 12:37)

Arthur Fiedler & The Boston Pops - Marches in Hi-Fi (Arthur Fiedler)
Жанр: Classical
Страна-производитель диска: USA
Год издания: 1993
Издатель (лейбл): BMG MUSIC
Номер по каталогу: 09026-61249-2
Аудиокодек: FLAC (*.flac)
Тип рипа: image+.cue
Битрейт аудио: lossless
Продолжительность: 61:56
Источник (релизер): Owner Rip
Наличие сканов в содержимом раздачи: да

Треклист:
01. Verdi - Grand March from Aida [0:03:38.65]
02. Victor Herbert - March of the Toys from Babes in Toyland [0:03:51.37]
03. Sousa - Semper Fidelis [0:02:37.58]
04. Tchaikovsky - Marche Miniature from Suite Nº 1 Op. 43 [0:02:01.45]
05. Traditional - Yankee Doodle (Arr. Morton Gould) [0:02:34.40]
06. Robert Morse - Up the Street [0:02:12.15]
07. Berlioz - Rákóczy March from The Dammation of Faust [0:04:15.65]
08. Richard Rodgers - March of the Siamese Children from The King and I [0:03:29.10]
09. Mikhail Ippolitov-Ivanov - Procession of the Sardar from Caucasian Sketches [0:03:48.22]
10. Robert Planquette - Le Régiment de Sambre-et-Meuse [0:03:59.68]
11. Beethoven - Turkish March from Ruins of Athens [0:01:40.45]
12. Kenneth Alford - Colonel Bogey [0:03:09.50]
13. Daniel Emmett - Dixie (Arr. Frank Black) [0:00:50.07]
14. Gould - American Salute [0:04:12.53]
15. Gershwin's - Strike Up the Band! [0:02:47.50]
16. Mendelssohn - War March of the Priests from Athalie [0:05:29.65]
17. Sibelius - Ala Marcia from Karelia Suite [0:04:11.60]
18. Rózsa - March of the Charioteers from Ben Hur [0:03:41.32]
19. Sousa - The Stars and Stripes Forever [0:03:24.25]

Лог создания рипа
Exact Audio Copy V1.0 beta 1 from 15. November 2010
EAC extraction logfile from 30. June 2012, 4:42
Arthur Fiedler & BPO / Marches in Hi-Fi
Used drive : PIONEER DVD-RW DVR-118L Adapter: 4 ID: 0
Read mode : Secure
Utilize accurate stream : Yes
Defeat audio cache : Yes
Make use of C2 pointers : No
Read offset correction : 6
Overread into Lead-In and Lead-Out : No
Fill up missing offset samples with silence : Yes
Delete leading and trailing silent blocks : No
Null samples used in CRC calculations : Yes
Used interface : Native Win32 interface for Win NT & 2000
Used output format : Internal WAV Routines
Sample format : 44.100 Hz; 16 Bit; Stereo
TOC of the extracted CD
Track | Start | Length | Start sector | End sector
---------------------------------------------------------
1 | 0:00.00 | 3:38.65 | 0 | 16414
2 | 3:38.65 | 3:51.37 | 16415 | 33776
3 | 7:30.27 | 2:37.58 | 33777 | 45609
4 | 10:08.10 | 2:01.45 | 45610 | 54729
5 | 12:09.55 | 2:34.40 | 54730 | 66319
6 | 14:44.20 | 2:12.15 | 66320 | 76234
7 | 16:56.35 | 4:15.65 | 76235 | 95424
8 | 21:12.25 | 3:29.10 | 95425 | 111109
9 | 24:41.35 | 3:48.22 | 111110 | 128231
10 | 28:29.57 | 3:59.68 | 128232 | 146224
11 | 32:29.50 | 1:40.45 | 146225 | 153769
12 | 34:10.20 | 3:09.50 | 153770 | 167994
13 | 37:19.70 | 0:50.07 | 167995 | 171751
14 | 38:10.02 | 4:12.53 | 171752 | 190704
15 | 42:22.55 | 2:47.50 | 190705 | 203279
16 | 45:10.30 | 5:29.65 | 203280 | 228019
17 | 50:40.20 | 4:11.60 | 228020 | 246904
18 | 54:52.05 | 3:41.32 | 246905 | 263511
19 | 58:33.37 | 3:24.25 | 263512 | 278836
Range status and errors
Selected range
Filename F:\YES ! We Speak Lossless @ ThailandTorrent\Arthur Fiedler & BPO - Marches in Hi-Fi.wav
Peak level 100.0 %
Extraction speed 0.1 X
Range quality 100.0 %
Test CRC 896B1FDC
Copy CRC 896B1FDC
Copy OK
No errors occurred
AccurateRip summary
Track 1 not present in database
Track 2 not present in database
Track 3 not present in database
Track 4 not present in database
Track 5 not present in database
Track 6 not present in database
Track 7 not present in database
Track 8 not present in database
Track 9 not present in database
Track 10 not present in database
Track 11 not present in database
Track 12 not present in database
Track 13 not present in database
Track 14 not present in database
Track 15 not present in database
Track 16 not present in database
Track 17 not present in database
Track 18 not present in database
Track 19 not present in database
None of the tracks are present in the AccurateRip database
End of status report
==== Log checksum 854D3400D0228538957B85BA41D5F15C7F83885F58E73A20EFCF9D93429A1BC6 ====
Содержание индексной карты (.CUE)
REM GENRE Classical
REM DATE 1993
REM DISCID E00E8513
REM COMMENT "ExactAudioCopy v1.0b1"
PERFORMER "Arthur Fiedler & BPO"
TITLE "Marches in Hi-Fi"
FILE "Arthur Fiedler & BPO - Marches in Hi-Fi.flac" WAVE
TRACK 01 AUDIO
TITLE "Verdi - Grand March from Aida"
PERFORMER "Arthur Fiedler & BPO"
INDEX 01 00:00:00
TRACK 02 AUDIO
TITLE "Victor Herbert - March of the Toys from Babes in Toyland"
PERFORMER "Arthur Fiedler & BPO"
INDEX 00 03:35:57
INDEX 01 03:38:65
TRACK 03 AUDIO
TITLE "Sousa - Semper Fidelis"
PERFORMER "Arthur Fiedler & BPO"
INDEX 00 07:27:27
INDEX 01 07:30:27
TRACK 04 AUDIO
TITLE "Tchaikovsky - Marche Miniature from Suite N. 1 Op. 43"
PERFORMER "Arthur Fiedler & BPO"
INDEX 00 10:05:12
INDEX 01 10:08:10
TRACK 05 AUDIO
TITLE "Traditional - Yankee Doodle (Arr. Morton Gould)"
PERFORMER "Arthur Fiedler & BPO"
INDEX 00 12:06:55
INDEX 01 12:09:55
TRACK 06 AUDIO
TITLE "Robert Morse - Up the Street"
PERFORMER "Arthur Fiedler & BPO"
INDEX 00 14:41:17
INDEX 01 14:44:20
TRACK 07 AUDIO
TITLE "Berlioz - R.k.czy March from The Dammation of Faust"
PERFORMER "Arthur Fiedler & BPO"
INDEX 00 16:53:32
INDEX 01 16:56:35
TRACK 08 AUDIO
TITLE "Richard Rodgers - March of the Siamese Children from The King and I"
PERFORMER "Arthur Fiedler & BPO"
INDEX 00 21:09:15
INDEX 01 21:12:25
TRACK 09 AUDIO
TITLE "Mikhail Ippolitov-Ivanov - Procession of the Sardar from Caucasian Sketches"
PERFORMER "Arthur Fiedler & BPO"
INDEX 00 24:38:12
INDEX 01 24:41:35
TRACK 10 AUDIO
TITLE "Robert Planquette - Le R.giment de Sambre-et-Meuse"
PERFORMER "Arthur Fiedler & BPO"
INDEX 00 28:27:12
INDEX 01 28:29:57
TRACK 11 AUDIO
TITLE "Beethoven - Turkish March from Ruins of Athens"
PERFORMER "Arthur Fiedler & BPO"
INDEX 00 32:26:45
INDEX 01 32:29:50
TRACK 12 AUDIO
TITLE "Kenneth Alford - Colonel Bogey"
PERFORMER "Arthur Fiedler & BPO"
INDEX 00 34:07:50
INDEX 01 34:10:20
TRACK 13 AUDIO
TITLE "Daniel Emmett - Dixie (Arr. Frank Black)"
PERFORMER "Arthur Fiedler & BPO"
INDEX 00 37:17:00
INDEX 01 37:19:70
TRACK 14 AUDIO
TITLE "Gould - American Salute"
PERFORMER "Arthur Fiedler & BPO"
INDEX 00 38:07:15
INDEX 01 38:10:02
TRACK 15 AUDIO
TITLE "Gershwin's - Strike Up the Band!"
PERFORMER "Arthur Fiedler & BPO"
INDEX 00 42:19:62
INDEX 01 42:22:55
TRACK 16 AUDIO
TITLE "Mendelssohn - War March of the Priests from Athalie"
PERFORMER "Arthur Fiedler & BPO"
INDEX 00 45:08:00
INDEX 01 45:10:30
TRACK 17 AUDIO
TITLE "Sibelius - Ala Marcia from Karelia Suite"
PERFORMER "Arthur Fiedler & BPO"
INDEX 00 50:37:32
INDEX 01 50:40:20
TRACK 18 AUDIO
TITLE "R.zsa - March of the Charioteers from Ben Hur"
PERFORMER "Arthur Fiedler & BPO"
INDEX 00 54:49:20
INDEX 01 54:52:05
TRACK 19 AUDIO
TITLE "Sousa - The Stars and Stripes Forever"
PERFORMER "Arthur Fiedler & BPO"
INDEX 00 58:31:00
INDEX 01 58:33:37
Download
Для скачивания .torrent файлов необходима регистрация
Сайт не распространяет и не хранит электронные версии произведений, а лишь предоставляет доступ к создаваемому пользователями каталогу ссылок на торрент-файлы, которые содержат только списки хеш-сумм
[Профиль]  [ЛС] 

deepofrain

VIP (Заслуженный)

Стаж: 12 лет

Сообщений: 4887

deepofrain · 16-Июл-12 08:07 (спустя 12 часов)

Цитата:
Жанр: Dixieland
its not fun
[Профиль]  [ЛС] 

el coronel

VIP (Заслуженный)

Стаж: 9 лет 5 месяцев

Сообщений: 4601

el coronel · 17-Июл-12 11:53 (спустя 1 день 3 часа)

yo0507
В заголовок темы впишите, пожалуйста, фамилии композиторов - на языке оригинала и без использования диакритических знаков.
[Профиль]  [ЛС] 

yo0507

Стаж: 9 лет 5 месяцев

Сообщений: 187

yo0507 · 17-Июл-12 12:15 (спустя 22 мин.)

el coronel
нормально ли это? Я не знаю много о классической музыке
[Профиль]  [ЛС] 

el coronel

VIP (Заслуженный)

Стаж: 9 лет 5 месяцев

Сообщений: 4601

el coronel · 17-Июл-12 12:25 (спустя 10 мин.)

yo0507
Нет. Верните, как было прежде, но в скобках допишите фамилии композиторов.
[Профиль]  [ЛС] 

yo0507

Стаж: 9 лет 5 месяцев

Сообщений: 187

yo0507 · 17-Июл-12 12:40 (спустя 14 мин.)

el coronel
нормально ли это?
[Профиль]  [ЛС] 

el coronel

VIP (Заслуженный)

Стаж: 9 лет 5 месяцев

Сообщений: 4601

el coronel · 17-Июл-12 14:38 (спустя 1 час 58 мин.)

yo0507
Я Вам исправил. На будущее обратите внимание, как должно быть.
[Профиль]  [ЛС] 

gonza220

Стаж: 10 лет 8 месяцев

Сообщений: 318


gonza220 · 05-Май-13 11:25 (спустя 9 месяцев, ред. 06-Май-13 12:55)

Спасибо за раздачу. Записан отлично. Можно на парад включать. Это не xrcd издание ?
[Профиль]  [ЛС] 
 
Ответить
Loading...
Error