Дыши / Breathe / Сезон: 1 / Серии: 1-8 (8) (Маянк Шарма / Mayank Sharma) [2018, Индия, криминал, драма, триллер, WEB-DL 720p] Original + Rus Sub (hvblack) + Eng Sub

Страницы:  1

Ответить
Автор
Сообщение

hvblack

Стаж: 9 лет 8 месяцев

Сообщений: 1755

hvblack · 26-Май-18 18:45 (1 год назад, ред. 01-Дек-18 10:31)

Дыши / Breathe
Год выпуска: 2018
Страна: Индия ("Амазон")
Жанр: криминал, драма, триллер
Продолжительность: ~00:39:00
Перевод: Субтитры (hvblack) + английские субтитры
В ролях: Мадхаван, Амит Садх, Сапна Пабби, Шрисвара, Атарва Вишвакарма, Хришикш Джоши
Описание: Отец пойдёт на что угодно ради смертельно больного сына.
Полицейский пойдёт на что угодно, лишь бы его остановить.
Рейтинг на IMDB - 8.9.
"Дыши" на Рутрекере
Сэмпл
Качество: WEB-DL 720p
Контейнер: MKV
Видео: AVC, 1280x720 (16:9), 25,000 кадра/сек, ~2500 Кбит/сек, ~0.113 бит/пиксель
Аудио: AC-3, 48 КГц, 6 канала, 640 Кбит/сек
Список серий
1. Обещание
2. Охота начинается
3. Безопасность превыше всего
4. Прослушивание
5. Плохая рыба
6. Обман слепца
7. В его глазах
8. Части тела
Отчёт MediaInfo
Общее
Уникальный идентификатор : 240522621549594318511317671415175720793 (0xB4F2F8CF634D7B9E8343897C16342F59)
Полное имя : ...\Breathe s01 WEB-DL 720p\Breathe - s01e01 - The Promise.mkv
Формат : Matroska
Версия формата : Version 4 / Version 2
Размер файла : 910 Мбайт
Продолжительность : 39 м. 20 с.
Режим общего битрейта : Переменный
Общий поток : 3234 Кбит/сек
Дата кодирования : UTC 2018-01-27 17:47:16
Программа кодирования : mkvmerge v19.0.0 ('Brave Captain') 64-bit
Библиотека кодирования : libebml v1.3.5 + libmatroska v1.4.8
Видео
Идентификатор : 1
Формат : AVC
Формат/Информация : Advanced Video Codec
Профиль формата : [email protected]
Параметр CABAC формата : Да
Параметр ReFrames формата : 5 кадров
Идентификатор кодека : V_MPEG4/ISO/AVC
Продолжительность : 39 м. 20 с.
Вид битрейта : Переменный
Битрейт : 2593 Кбит/сек
Максимальный битрейт : 4500 Кбит/сек
Ширина : 1280 пикселей
Высота : 720 пикселей
Соотношение сторон : 16:9
Режим частоты кадров : Постоянный
Частота кадров : 25,000 кадров/сек
Цветовое пространство : YUV
Субдискретизация насыщенности : 4:2:0
Битовая глубина : 8 бит
Тип развёртки : Прогрессивная
Бит/(Пиксели*Кадры) : 0.113
Размер потока : 730 Мбайт (80%)
Default : Да
Forced : Нет
Цветовой диапазон : Limited
Основные цвета : BT.709
Характеристики трансфера : BT.709
Коэффициенты матрицы : BT.709
Аудио
Идентификатор : 2
Формат : E-AC-3
Формат/Информация : Enhanced Audio Coding 3
Параметр Endianness формата : Big
Идентификатор кодека : A_EAC3
Продолжительность : 39 м. 20 с.
Вид битрейта : Постоянный
Битрейт : 640 Кбит/сек
Каналы : 6 каналов
Расположение каналов : Front: L C R, Side: L R, LFE
Частота : 48,0 КГц
Частота кадров : 187,500 кадров/сек (256 spf)
Метод сжатия : С потерями
Размер потока : 180 Мбайт (20%)
Язык : Hindi
Default : Да
Forced : Нет
Текст
Идентификатор : 3
Формат : UTF-8
Идентификатор кодека : S_TEXT/UTF8
Идентификатор кодека/Информация : UTF-8 Plain Text
Продолжительность : 37 м. 16 с.
Битрейт : 53 бит/сек
Count of elements : 527
Размер потока : 14,7 Кбайт (0%)
Язык : English
Default : Нет
Forced : Нет
Меню
00:00:00.000 : en:Amazon Original
00:00:06.000 : en:When you leave the last message
00:02:48.000 : en:Opening Credits
00:03:41.000 : en:Kabir receives an information
00:04:43.000 : en:A raid with the information achieved
00:05:29.000 : en:A small detail you overlooked
00:06:25.000 : en:Kabir pays a surprise visit
00:09:14.000 : en:Kabir's public fight
00:10:29.000 : en:Someone is a sore loser
00:12:05.000 : en:Sublime message associated with the gift
00:15:12.000 : en:An unexpected phone call
00:17:01.000 : en:Danny and Juliet are heartbroken
00:17:33.000 : en:Aruna tells about Josh's condition
00:20:02.000 : en:Danny's word of wisdom fall on deaf ears
00:24:51.000 : en:Kabir and his recurring nightmare
00:26:22.000 : en:Kabir and Ria's argument
00:29:27.000 : en:Nilesh tries to help Kabir
00:32:47.000 : en:An emotional Juliet
00:35:31.000 : en:Danny and his dilemma
00:36:25.000 : en:A father's fight and a decision made
00:38:11.000 : en:End Credits
Скриншоты
Внимание! Раздача ведётся путём добавления новых серий
Внимание! Раздача ведётся путём добавления новых серий; при каждом добавлении создаётся новый торрент. Чтобы начать докачку новой серии, пользователям необходимо сделать следующее:
(1) остановить скачивание,
(2) удалить старый торрент у себя из клиента (старые серии удалять не надо),
(3) скачать новый торрент и запустить его у себя в клиенте вместо старого, при этом указать клиенту путь в старую папку куда и должно происходить скачивание новых серий.
Ваш клиент при этом должен произвести хеширование (проверку) старой папки (если не производит сам - помогите ему сделать это), и будет докачивать только те серии которых у вас ещё нет. Старые серии при этом не удаляются, а продолжают раздаваться!
Eсли вы уже удалили старые серии, то предотвратить повторную закачку старых серий можно, отжав галочку в соответствующих местах при запуске нового торрента. По возможности, желательно не удалять старые серии как можно дольше чтобы релизёр не столько продолжал раздавать старые серии, а смог сконцентрироваться на новых.
Download
Для скачивания .torrent файлов необходима регистрация
Сайт не распространяет и не хранит электронные версии произведений, а лишь предоставляет доступ к создаваемому пользователями каталогу ссылок на торрент-файлы, которые содержат только списки хеш-сумм
[Профиль]  [ЛС] 

hvblack

Стаж: 9 лет 8 месяцев

Сообщений: 1755

hvblack · 26-Май-18 18:47 (спустя 1 мин.)

Первая серия
"Обещание"
Вторая серия
"Охота начинается"
[Профиль]  [ЛС] 

Nickgal

Стаж: 12 лет

Сообщений: 150


Nickgal · 10-Июл-18 05:10 (спустя 1 месяц 14 дней)

продолжение будет?
[Профиль]  [ЛС] 

hvblack

Стаж: 9 лет 8 месяцев

Сообщений: 1755

hvblack · 28-Авг-18 15:35 (спустя 1 месяц 18 дней, ред. 29-Авг-18 14:42)

Третья серия
"Безопасность превыше всего"
Четвёртая серия
"Прослушивание"
Очень извиняюсь за рваный ритм перевода.
[Профиль]  [ЛС] 

hvblack

Стаж: 9 лет 8 месяцев

Сообщений: 1755

hvblack · 22-Сен-18 16:01 (спустя 25 дней)

Пятая серия
"Плохая рыба"
Шестая серия
"Обман слепца"
[Профиль]  [ЛС] 

hvblack

Стаж: 9 лет 8 месяцев

Сообщений: 1755

hvblack · 01-Дек-18 10:32 (спустя 2 месяца 8 дней)

Седьмая серия
"В его глазах"
Восьмая серия
"Части тела"
КОНЕЦ СЕЗОНА
Спасибо за внимание и терпение
.
[Профиль]  [ЛС] 
 
Ответить
Loading...
Error