If I Leave Here Tomorrow: A Film About Lynyrd Skynyrd [2018, Documentary/Blues Rock/Southern Rock, Web-DL, 1080p]

Страницы:  1

Ответить
Автор
Сообщение

anbelk27

Admin gray

Стаж: 10 лет 2 месяца

Сообщений: 7612

anbelk27 · 21-Сен-18 22:20 (8 месяцев назад, ред. 22-Сен-18 13:40)

If I Leave Here Tomorrow: A Film About Lynyrd Skynyrd
Жанр: Documentary/Blues Rock/Southern Rock
Продолжительность: 01:37:02
Год выпуска: 2018
Режиссер:Stephen Kijak
Описание: This authorized documentary will explore the music and backstory of the legendary American band. With the songs from the first six Skynyrd albums driving the narration, the film focuses on the story of frontman Ronnie Van Zant - his upbringing, his roots, his work ethic and his contradictory persona as both as a mythic Southern rock poet and notorious boozed-up brawler, as well as the relationships between his friends and fellow founding members Gary Rossington and Allen Collins, along with later bandmates Ed King and Artimus Pyle.

Русского перевода нет
Качество: Web-DL
Разрешение видео/развертка: 1080p
Контейнер: MKV
Видео кодек: H.264
Аудио кодек: AC3
Видео: AVC, 1920x1080 (16:9), 23.976 fps, 9 927 Kbps
Аудио: E-AC-3, 48.0 KHz, 6 ch, 640 Kbps
MediaInfo
General
Unique ID : 155599433412995428139199462922292911893 (0x750F5C5E4E0999914846FABF0EED5F15)
Complete name : K:\If.I.Leave.Here.Tomorrow.A.Film.About.Lynyrd.Skynyrd.2018.1080p.AMZN.WEB-DL.DDP5.1.H.264-monkee.mkv
Format : Matroska
Format version : Version 4 / Version 2
File size : 7.31 GiB
Duration : 1 h 37 min
Overall bit rate : 10.8 Mb/s
Writing application : mkvmerge v21.0.0 ('Tardigrades Will Inherit The Earth') 64-bit
Writing library : libebml v1.3.5 + libmatroska v1.4.8
Video
ID : 1
Format : AVC
Format/Info : Advanced Video Codec
Format profile : [email protected]
Format settings : CABAC / 4 Ref Frames
Format settings, CABAC : Yes
Format settings, RefFrames : 4 frames
Codec ID : V_MPEG4/ISO/AVC
Duration : 1 h 37 min
Bit rate : 9 927 kb/s
Width : 1 920 pixels
Height : 1 080 pixels
Display aspect ratio : 16:9
Frame rate mode : Constant
Frame rate : 23.976 (24000/1001) FPS
Color space : YUV
Chroma subsampling : 4:2:0
Bit depth : 8 bits
Scan type : Progressive
Bits/(Pixel*Frame) : 0.200
Stream size : 6.73 GiB (92%)
Default : Yes
Forced : No
Color range : Limited
Color primaries : BT.709
Transfer characteristics : BT.709
Matrix coefficients : BT.709
Statistics Tags Issue : mkvmerge v21.0.0 ('Tardigrades Will Inherit The Earth') 64-bit 2018-08-19 01:12:55 / mkvmerge v21.0.0 ('Tardigrades Will Inherit The Earth') 64-bit
FromStats_BitRate : 10139355
FromStats_Duration : 01:37:02.067000000
FromStats_FrameCount : 139590
FromStats_StreamSize : 7379001104
Audio
ID : 2
Format : E-AC-3
Format/Info : Enhanced Audio Coding 3
Codec ID : A_EAC3
Duration : 1 h 37 min
Bit rate mode : Constant
Bit rate : 640 kb/s
Channel(s) : 6 channels
Channel positions : Front: L C R, Side: L R, LFE
Sampling rate : 48.0 kHz
Frame rate : 187.500 FPS (256 SPF)
Compression mode : Lossy
Delay relative to video : 6 ms
Stream size : 444 MiB (6%)
Language : English
Service kind : Complete Main
Default : Yes
Forced : No
Statistics Tags Issue : mkvmerge v21.0.0 ('Tardigrades Will Inherit The Earth') 64-bit 2018-08-19 01:12:55 / mkvmerge v21.0.0 ('Tardigrades Will Inherit The Earth') 64-bit
FromStats_BitRate : 640000
FromStats_Duration : 01:37:02.112000000
FromStats_FrameCount : 181941
FromStats_StreamSize : 465768960
Text #1
ID : 3
Format : UTF-8
Codec ID : S_TEXT/UTF8
Codec ID/Info : UTF-8 Plain Text
Language : English
Default : No
Forced : No
Statistics Tags Issue : mkvmerge v21.0.0 ('Tardigrades Will Inherit The Earth') 64-bit 2018-08-19 01:12:55 / mkvmerge v21.0.0 ('Tardigrades Will Inherit The Earth') 64-bit
FromStats_BitRate : 103
FromStats_Duration : 01:36:18.958000000
FromStats_FrameCount : 1971
FromStats_StreamSize : 74430
Text #2
ID : 4
Format : UTF-8
Codec ID : S_TEXT/UTF8
Codec ID/Info : UTF-8 Plain Text
Title : SDH
Language : English
Default : No
Forced : No
Statistics Tags Issue : mkvmerge v21.0.0 ('Tardigrades Will Inherit The Earth') 64-bit 2018-08-19 01:12:55 / mkvmerge v21.0.0 ('Tardigrades Will Inherit The Earth') 64-bit
FromStats_BitRate : 104
FromStats_Duration : 01:36:24.959000000
FromStats_FrameCount : 2011
FromStats_StreamSize : 75546
Скриншоты
Download
Для скачивания .torrent файлов необходима регистрация
Сайт не распространяет и не хранит электронные версии произведений, а лишь предоставляет доступ к создаваемому пользователями каталогу ссылок на торрент-файлы, которые содержат только списки хеш-сумм
[Профиль]  [ЛС] 

dbibi

Top Seed 01* 40r

Стаж: 10 лет 5 месяцев

Сообщений: 983

dbibi · 04-Мар-19 01:20 (спустя 5 месяцев 12 дней)

Субтитров нет?
[Профиль]  [ЛС] 

1962alex1962

Стаж: 9 лет 11 месяцев

Сообщений: 138

1962alex1962 · 17-Апр-19 20:46 (спустя 1 месяц 13 дней)

Для такой команды перевод нужен обязательно,не говоря уже о сабах. Это уже история.Может кто из спецов возьмется осчастливить форумчан? Да, конечно наивные желания, а вдруг....
[Профиль]  [ЛС] 

dbibi

Top Seed 01* 40r

Стаж: 10 лет 5 месяцев

Сообщений: 983

dbibi · 17-Апр-19 23:57 (спустя 3 часа)

Если найдутся английские субтитры, я могу перевести
[Профиль]  [ЛС] 

1962alex1962

Стаж: 9 лет 11 месяцев

Сообщений: 138

1962alex1962 · 20-Апр-19 15:56 (спустя 2 дня 15 часов, ред. 20-Апр-19 15:56)

Нашел в сети с переводом https://спам может кто возьмется оттуда дорожку синхронизиовать под эту раздачу
dbibi писал(а):
77226020Если найдутся английские субтитры, я могу перевести
Субтитры в раздаче есть SRT,нужна именно звуковая дорога
[Профиль]  [ЛС] 

Fragile59

Top Seed 03* 160r

Стаж: 11 лет 1 месяц

Сообщений: 1398

Fragile59 · 23-Май-19 16:19 (спустя 1 месяц 3 дня, ред. 23-Май-19 16:19)

1962alex1962 писал(а):
77238213Нашел в сети с переводом может кто возьмется оттуда дорожку синхронизиовать под эту раздачу
Субтитры в раздаче есть SRT,нужна именно звуковая дорога
Оттуда не скачивается уже месяц с лишним.
[Профиль]  [ЛС] 

1962alex1962

Стаж: 9 лет 11 месяцев

Сообщений: 138

1962alex1962 · 03-Июн-19 15:26 (спустя 10 дней)

Fragile59 писал(а):
77419350
1962alex1962 писал(а):
77238213Нашел в сети с переводом https://спам может кто возьмется оттуда дорожку синхронизиовать под эту раздачу
Субтитры в раздаче есть SRT,нужна именно звуковая дорога
Оттуда не скачивается уже месяц с лишним.
Скачал фильм,вырезал рекламу,вроде получилось,даже по времени с вашей совпала 01:37:02. Только мои познания в этой области и закончились.Дело в том,что через MKVToolNix GUI вставил я эту дорогу,но получился явный рассинхрон звука и в начале я не знаю как убрать немного рекламы от Азино777. Возможно нужно битрэйт менять или кодек, я в этом не мастак.Залил звуковую русскую дорогу на яндекс-диск.Вот ссылка https://спам .Может кто из спецов возьмется скачать и слепить с русской дорогой и выложить с параметрами видео,как в этой раздаче или хотя бы 1280х720(16:9)
[Профиль]  [ЛС] 

dbibi

Top Seed 01* 40r

Стаж: 10 лет 5 месяцев

Сообщений: 983

dbibi · 03-Июн-19 15:49 (спустя 23 мин.)

Так я не понял, в этой раздаче есть субтитры? И если есть, то русские или английские?
[Профиль]  [ЛС] 

1962alex1962

Стаж: 9 лет 11 месяцев

Сообщений: 138

1962alex1962 · 03-Июн-19 17:06 (спустя 1 час 16 мин.)

Субтитров нет
[Профиль]  [ЛС] 

Fragile59

Top Seed 03* 160r

Стаж: 11 лет 1 месяц

Сообщений: 1398

Fragile59 · 03-Июн-19 19:20 (спустя 2 часа 14 мин.)

Субтитры есть, но английские!
[Профиль]  [ЛС] 
 
Ответить
Loading...
Error