(Classical, Christmas) The Boston Pops Orchestra. Keith Lockhart - Holiday Pops - 1998, FLAC (tracks+.cue) lossless

Страницы:  1

Ответить
Автор
Сообщение

clustert

Top Seed 06* 1280r

Стаж: 9 лет 4 месяца

Сообщений: 1448

clustert · 15-Май-16 13:03 (3 года 1 месяц назад)

The Boston Pops Orchestra. Keith Lockhart / Holiday Pops
Жанр: Classical, Christmas
Страна-производитель диска: Canada
Год издания диска: 1998
Издатель (лейбл): BMG Entertainment
Номер по каталогу: BG263252
Аудиокодек: FLAC
Тип рипа: tracks+.cue
Битрейт аудио: lossless
Продолжительность: 0:55:46.
Источник: собственный рип
Наличие сканов в содержимом раздачи: да
Треклист:
01. Gloria, Tanglewood Festival Chorus [0:06:11.15]
02. Christmas Waltzes: The Christmas Waltz/Silver Bells/My Favorite Things [0:04:30.30]
03. Carol of the Bells, Tanglewood Festival Chorus [0:02:11.60]
04. Fantasia On Christmas Carols (1912), Tanglewood Festival Chorus [0:11:43.70]
05. Tomorrow Is My Dancing Day [0:04:30.42]
06. Shepherd's Chorus (From "L'Enfance du Christ"), Tanglewood Festival Chorus [0:04:33.23]
07. Farandole [0:03:34.15]
08. Christmas Time Is Here (from the TV special A Charlie Brown Christmas), Performing Artists Lincoln School [0:03:03.10]
09. Good Swing Wenceslas [0:03:37.70]
10. Mary's Little Boy Child, Tanglewood Festival Chorus [0:03:40.35]
11. Sleigh Ride, Tanglewood Festival Chorus [0:02:54.60]
12. Frosty All the Way! [0:02:26.65]
13. Merry Christmas, Merry Christmas, Tanglewood Festival Chorus [0:02:47.62]
Лог создания рипа
Exact Audio Copy V1.0 beta 3 from 29. August 2011
Отчёт EAC об извлечении, выполненном 7. мая 2016, 22:20
The Boston Pops Orchestra. Keith Lockhart / Holiday Pops
Дисковод: ASUS DRW-1814BLT Adapter: 4 ID: 0
Режим чтения : Достоверность
Использование точного потока : Да
Отключение кэша аудио : Да
Использование указателей C2 : Нет
Коррекция смещения при чтении : 6
Способность читать области Lead-in и Lead-out : Нет
Заполнение пропущенных сэмплов тишиной : Да
Удаление блоков с тишиной в начале и конце : Нет
При вычислениях CRC использовались нулевые сэмплы : Да
Интерфейс : Встроенный Win32-интерфейс для Win NT/2000
Обработка зазоров : Добавлено к предыдущему треку
Выходной формат : Пользовательский кодировщик
Выбранный битрейт : 128 kBit/s
Качество : Высокий
Добавление ID3-тега : Нет
Утилита сжатия : C:\Program Files\Exact Audio Copy\Flac\flac.exe
Дополнительные параметры : -V -8 -T "Genre=%genre%" -T "Artist=%artist%" -T "Title=%title%" -T "Album=%albumtitle%" -T "Date=%year%" -T "Tracknumber=%tracknr%" -T "Comment=EAC1.0b2 FLAC -8" %source%
TOC извлечённого CD
Трек | Старт | Длительность | Начальный сектор | Конечный сектор
---------------------------------------------------------------------
1 | 0:00.00 | 6:11.15 | 0 | 27839
2 | 6:11.15 | 4:30.30 | 27840 | 48119
3 | 10:41.45 | 2:11.60 | 48120 | 58004
4 | 12:53.30 | 11:43.70 | 58005 | 110799
5 | 24:37.25 | 4:30.42 | 110800 | 131091
6 | 29:07.67 | 4:33.23 | 131092 | 151589
7 | 33:41.15 | 3:34.15 | 151590 | 167654
8 | 37:15.30 | 3:03.10 | 167655 | 181389
9 | 40:18.40 | 3:37.70 | 181390 | 197734
10 | 43:56.35 | 3:40.35 | 197735 | 214269
11 | 47:36.70 | 2:54.60 | 214270 | 227379
12 | 50:31.55 | 2:26.65 | 227380 | 238394
13 | 52:58.45 | 2:47.62 | 238395 | 250981
Трек 1
Имя файла R:\Раздача 62\The Boston Pops Orchestra. Keith Lockhart - 1998 - Holiday Pops\01 Gloria, Tanglewood Festival Chorus .wav
Длина предзазора 0:00:02.00
Пиковый уровень 88.7 %
Скорость извлечения 3.9 X
Качество трека 99.9 %
CRC теста A9A83BCD
CRC копии A9A83BCD
Точность не определена (достоверность 16) [C99411FF], AccurateRip вернул [62E0A98B] (AR v2)
Копирование... OK
Трек 2
Имя файла R:\Раздача 62\The Boston Pops Orchestra. Keith Lockhart - 1998 - Holiday Pops\02 Christmas Waltzes- The Christmas Waltz,Silver Bells,My Favorite Things .wav
Длина предзазора 0:00:03.33
Пиковый уровень 99.8 %
Скорость извлечения 5.7 X
Качество трека 100.0 %
CRC теста C6EA3045
CRC копии C6EA3045
Точность не определена (достоверность 17) [906F93B8], AccurateRip вернул [FA237775] (AR v2)
Копирование... OK
Трек 3
Имя файла R:\Раздача 62\The Boston Pops Orchestra. Keith Lockhart - 1998 - Holiday Pops\03 Carol of the Bells, Tanglewood Festival Chorus .wav
Длина предзазора 0:00:01.03
Пиковый уровень 87.8 %
Скорость извлечения 3.5 X
Качество трека 99.9 %
CRC теста 6E76207B
CRC копии 6E76207B
Точность не определена (достоверность 17) [EAFC7B64], AccurateRip вернул [72E76805] (AR v2)
Копирование... OK
Трек 4
Имя файла R:\Раздача 62\The Boston Pops Orchestra. Keith Lockhart - 1998 - Holiday Pops\04 Fantasia On Christmas Carols (1912), Tanglewood Festival Chorus .wav
Длина предзазора 0:00:02.20
Пиковый уровень 96.1 %
Скорость извлечения 7.2 X
Качество трека 100.0 %
CRC теста C239CFD7
CRC копии C239CFD7
Точность не определена (достоверность 17) [CB19EBAD], AccurateRip вернул [24274D79] (AR v2)
Копирование... OK
Трек 5
Имя файла R:\Раздача 62\The Boston Pops Orchestra. Keith Lockhart - 1998 - Holiday Pops\05 Tomorrow Is My Dancing Day .wav
Длина предзазора 0:00:03.35
Пиковый уровень 93.5 %
Скорость извлечения 5.3 X
Качество трека 99.9 %
CRC теста F72597CE
CRC копии F72597CE
Точность не определена (достоверность 17) [948B0875], AccurateRip вернул [34E7671F] (AR v2)
Копирование... OK
Трек 6
Имя файла R:\Раздача 62\The Boston Pops Orchestra. Keith Lockhart - 1998 - Holiday Pops\06 Shepherd's Chorus (From ''L'Enfance du Christ''), Tanglewood Festival Chorus .wav
Длина предзазора 0:00:02.62
Пиковый уровень 56.8 %
Скорость извлечения 7.6 X
Качество трека 100.0 %
CRC теста 21296ECE
CRC копии 21296ECE
Точность не определена (достоверность 17) [ACF28000], AccurateRip вернул [09BF0B67] (AR v2)
Копирование... OK
Трек 7
Имя файла R:\Раздача 62\The Boston Pops Orchestra. Keith Lockhart - 1998 - Holiday Pops\07 Farandole .wav
Длина предзазора 0:00:04.25
Пиковый уровень 93.0 %
Скорость извлечения 7.6 X
Качество трека 100.0 %
CRC теста F84C2238
CRC копии F84C2238
Точность не определена (достоверность 17) [031B36C9], AccurateRip вернул [72E8E4B6] (AR v2)
Копирование... OK
Трек 8
Имя файла R:\Раздача 62\The Boston Pops Orchestra. Keith Lockhart - 1998 - Holiday Pops\08 Christmas Time Is Here (from the TV special A Charlie Brown Christmas), Performing Artists Lincoln School .wav
Длина предзазора 0:00:01.65
Пиковый уровень 39.6 %
Скорость извлечения 7.6 X
Качество трека 100.0 %
CRC теста B7ADA511
CRC копии B7ADA511
Точность не определена (достоверность 17) [1203A7BE], AccurateRip вернул [1FC80EB9] (AR v2)
Копирование... OK
Трек 9
Имя файла R:\Раздача 62\The Boston Pops Orchestra. Keith Lockhart - 1998 - Holiday Pops\09 Good Swing Wenceslas .wav
Длина предзазора 0:00:02.65
Пиковый уровень 77.6 %
Скорость извлечения 8.1 X
Качество трека 100.0 %
CRC теста FABF3C32
CRC копии FABF3C32
Точность не определена (достоверность 17) [F4ACD27A], AccurateRip вернул [3F66A9CC] (AR v2)
Копирование... OK
Трек 10
Имя файла R:\Раздача 62\The Boston Pops Orchestra. Keith Lockhart - 1998 - Holiday Pops\10 Mary's Little Boy Child, Tanglewood Festival Chorus .wav
Длина предзазора 0:00:03.03
Пиковый уровень 91.6 %
Скорость извлечения 8.2 X
Качество трека 100.0 %
CRC теста 1B4C8C56
CRC копии 1B4C8C56
Точность не определена (достоверность 17) [1B034D4F], AccurateRip вернул [6E32CD25] (AR v2)
Копирование... OK
Трек 11
Имя файла R:\Раздача 62\The Boston Pops Orchestra. Keith Lockhart - 1998 - Holiday Pops\11 Sleigh Ride, Tanglewood Festival Chorus .wav
Длина предзазора 0:00:02.58
Пиковый уровень 83.8 %
Скорость извлечения 8.2 X
Качество трека 100.0 %
CRC теста 7212C15F
CRC копии 7212C15F
Точность не определена (достоверность 17) [694AE497], AccurateRip вернул [D1A1595C] (AR v2)
Копирование... OK
Трек 12
Имя файла R:\Раздача 62\The Boston Pops Orchestra. Keith Lockhart - 1998 - Holiday Pops\12 Frosty All the Way! .wav
Длина предзазора 0:00:01.73
Пиковый уровень 72.9 %
Скорость извлечения 8.0 X
Качество трека 100.0 %
CRC теста 34D68E59
CRC копии 34D68E59
Точность не определена (достоверность 17) [9F6D711D], AccurateRip вернул [5A323023] (AR v2)
Копирование... OK
Трек 13
Имя файла R:\Раздача 62\The Boston Pops Orchestra. Keith Lockhart - 1998 - Holiday Pops\13 Merry Christmas, Merry Christmas, Tanglewood Festival Chorus .wav
Длина предзазора 0:00:01.35
Пиковый уровень 88.9 %
Скорость извлечения 8.4 X
Качество трека 100.0 %
CRC теста 3C7DC8C9
CRC копии 3C7DC8C9
Точность не определена (достоверность 16) [2423715C], AccurateRip вернул [61B9A607] (AR v2)
Копирование... OK
Ни один трек не прошёл проверки на точность
В вашей базе может быть иной вариант штамповки диска
Ошибок не произошло
Конец отчёта
==== Контрольная сумма отчёта 74BA75C379FD4682C59BD96B52908849AF832C47A7ABFB6E5B1D221E9BFC0633 ====
Содержание индексной карты (.CUE)
REM GENRE Christmas
REM DATE 1998
REM DISCID B50D120D
REM COMMENT "ExactAudioCopy v1.0b3"
PERFORMER "The Boston Pops Orchestra. Keith Lockhart"
TITLE "Holiday Pops"
FILE "01 Gloria, Tanglewood Festival Chorus .wav" WAVE
TRACK 01 AUDIO
TITLE "Gloria, Tanglewood Festival Chorus"
PERFORMER "The Boston Pops Orchestra. Keith Lockhart"
ISRC H29M19801355
INDEX 01 00:00:00
TRACK 02 AUDIO
TITLE "Christmas Waltzes: The Christmas Waltz/Silver Bells/My Favorite Things"
PERFORMER "The Boston Pops Orchestra. Keith Lockhart"
ISRC H29M19801356
INDEX 00 06:07:57
FILE "02 Christmas Waltzes- The Christmas Waltz,Silver Bells,My Favorite Things .wav" WAVE
INDEX 01 00:00:00
TRACK 03 AUDIO
TITLE "Carol of the Bells, Tanglewood Festival Chorus"
PERFORMER "The Boston Pops Orchestra. Keith Lockhart"
ISRC H29M19801357
INDEX 00 04:29:27
FILE "03 Carol of the Bells, Tanglewood Festival Chorus .wav" WAVE
INDEX 01 00:00:00
TRACK 04 AUDIO
TITLE "Fantasia On Christmas Carols (1912), Tanglewood Festival Chorus"
PERFORMER "The Boston Pops Orchestra. Keith Lockhart"
ISRC H29M19801358
INDEX 00 02:09:40
FILE "04 Fantasia On Christmas Carols (1912), Tanglewood Festival Chorus .wav" WAVE
INDEX 01 00:00:00
TRACK 05 AUDIO
TITLE "Tomorrow Is My Dancing Day"
PERFORMER "The Boston Pops Orchestra. Keith Lockhart"
ISRC H29M19801359
INDEX 00 11:40:35
FILE "05 Tomorrow Is My Dancing Day .wav" WAVE
INDEX 01 00:00:00
TRACK 06 AUDIO
TITLE "Shepherd's Chorus (From 'L'Enfance du Christ'), Tanglewood Festival Chorus"
PERFORMER "The Boston Pops Orchestra. Keith Lockhart"
ISRC H29M19801360
INDEX 00 04:27:55
FILE "06 Shepherd's Chorus (From ''L'Enfance du Christ''), Tanglewood Festival Chorus .wav" WAVE
INDEX 01 00:00:00
TRACK 07 AUDIO
TITLE "Farandole"
PERFORMER "The Boston Pops Orchestra. Keith Lockhart"
ISRC H29M19801361
INDEX 00 04:28:73
FILE "07 Farandole .wav" WAVE
INDEX 01 00:00:00
TRACK 08 AUDIO
TITLE "Christmas Time Is Here (from the TV special A Charlie Brown Christmas), Perfo..."
PERFORMER "The Boston Pops Orchestra. Keith Lockhart"
ISRC H29M19801362
INDEX 00 03:32:25
FILE "08 Christmas Time Is Here (from the TV special A Charlie Brown Christmas), Performing Artists Lincoln School .wav" WAVE
INDEX 01 00:00:00
TRACK 09 AUDIO
TITLE "Good Swing Wenceslas"
PERFORMER "The Boston Pops Orchestra. Keith Lockhart"
ISRC H29M19801363
INDEX 00 03:00:20
FILE "09 Good Swing Wenceslas .wav" WAVE
INDEX 01 00:00:00
TRACK 10 AUDIO
TITLE "Mary's Little Boy Child, Tanglewood Festival Chorus"
PERFORMER "The Boston Pops Orchestra. Keith Lockhart"
ISRC H29M19801364
INDEX 00 03:34:67
FILE "10 Mary's Little Boy Child, Tanglewood Festival Chorus .wav" WAVE
INDEX 01 00:00:00
TRACK 11 AUDIO
TITLE "Sleigh Ride, Tanglewood Festival Chorus"
PERFORMER "The Boston Pops Orchestra. Keith Lockhart"
ISRC H29M19801365
INDEX 00 03:37:52
FILE "11 Sleigh Ride, Tanglewood Festival Chorus .wav" WAVE
INDEX 01 00:00:00
TRACK 12 AUDIO
TITLE "Frosty All the Way!"
PERFORMER "The Boston Pops Orchestra. Keith Lockhart"
ISRC H29M19801366
INDEX 00 02:52:62
FILE "12 Frosty All the Way! .wav" WAVE
INDEX 01 00:00:00
TRACK 13 AUDIO
TITLE "Merry Christmas, Merry Christmas, Tanglewood Festival Chorus"
PERFORMER "The Boston Pops Orchestra. Keith Lockhart"
ISRC H29M19801367
INDEX 00 02:25:30
FILE "13 Merry Christmas, Merry Christmas, Tanglewood Festival Chorus .wav" WAVE
INDEX 01 00:00:00
Download
Для скачивания .torrent файлов необходима регистрация
Сайт не распространяет и не хранит электронные версии произведений, а лишь предоставляет доступ к создаваемому пользователями каталогу ссылок на торрент-файлы, которые содержат только списки хеш-сумм
[Профиль]  [ЛС] 
 
Ответить
Loading...
Error